The List Updates Statistics Contact
Video 2015-11-29 20:42:39 2017-12-03 08:03:37

Blur

2015-09-05

Ireland - Laois
Stradbally Hall
Electric Picnic 2015

Version: RTE Two HD Saorview Broadcast>SmartDVB>1080i

Info

37:00 min
Digital Video Broadcast
Tech Specs:
General
Format : MPEG-TS
File size : 2.04 GiB
Duration : 37mn 1s
Overall bit rate : 7 897 Kbps

Video
ID : 1102 (0x44E)
Menu ID : 1102 (0x44E)
Format : AVC
Format/Info : Advanced Video Codec
Format profile : Main@L4.0
Format settings, CABAC : Yes
Format settings, ReFrames : 4 frames
Codec ID : 27
Duration : 37mn 1s
Bit rate : 7 313 Kbps
Width : 1 440 pixels
Height : 1 080 pixels
Display aspect ratio : 16:9
Frame rate : 25.000 fps
Color space : YUV
Chroma subsampling : 4:2:0
Bit depth : 8 bits
Scan type : Interlaced
Scan order : Top Field First
Bits/(Pixel*Frame) : 0.188
Stream size : 1.89 GiB (93%)
Color primaries : BT.709-5, BT.1361, IEC 61966-2-4, SMPTE RP177
Transfer characteristics : BT.709-5, BT.1361
Matrix coefficients : BT.709-5, BT.1361, IEC 61966-2-4 709, SMPTE RP177

Audio
ID : 1202 (0x4B2)
Menu ID : 1102 (0x44E)
Format : MPEG Audio
Format version : Version 1
Format profile : Layer 2
Codec ID : 3
Duration : 37mn 1s
Bit rate mode : Constant
Bit rate : 192 Kbps
Channel(s) : 2 channels
Sampling rate : 48.0 KHz
Compression mode : Lossy
Delay relative to video : 177ms
Stream size : 50.8 MiB (2%)
Language : nar
Professional
16:9
HDTV
2.1gb

Screenshots